#TITLE:AOAO;
#SUBTITLE:Royal mix;
#ARTIST:DJ Sharpnel;
#TITLETRANSLIT:;
#SUBTITLETRANSLIT:;
#ARTISTTRANSLIT:;
#CREDIT:;
#BANNER:aoao-bn.png;
#BACKGROUND:aoaobg.png;
#LYRICSPATH:;
#CDTITLE:cdtitle.png;
#MUSIC:08-AOAO(royal mix).mp3;
#OFFSET:-18.881;
#SAMPLESTART:23.960;
#SAMPLELENGTH:12.000;
#SELECTABLE:YES;
#BPMS:0.000=166.050;
#STOPS:68.000=1.084
,99.000=0.361
,132.000=1.084
,133.000=1.084
,134.000=1.084
,135.000=1.084
,136.000=1.084
,137.000=1.084
,138.000=1.084
,139.000=1.084
,164.000=2.529
,193.000=1.084
;
#BGCHANGES:;
// cache tags:
#FIRSTBEAT:8.000;
#LASTBEAT:289.500;
#SONGFILENAME:Songs/Music V.I.P ^_^/AOAO (royal mix)- Bursurk Lurk/AOAO.sm;
#HASMUSIC:1;
#HASBANNER:1;
#MUSICLENGTH:137.482;
// end cache tags

//---------------dance-single - ----------------
#NOTES:
     dance-single:
     :
     Hard:
     10:
     0.892,0.763,1.000,0.116,0.596,701.000,141.000,16.000,0.000,8.000:
0000
0000
0000
0000
,
0000
0000
0000
0000
,
1100
0100
0110
0010
1010
1000
1001
0001
,
0101
0100
0110
0010
1010
1000
1100
0100
,
0110
0010
0110
0100
1100
1000
1010
0010
,
0110
0000
0100
0000
0101
0000
0001
0000
0011
0000
0010
0100
0010
0000
0110
0000
,
0101
0001
1001
1000
1100
0100
0110
0010
,
1010
1000
1100
0100
0110
0010
0011
0001
,
0101
0100
0110
0010
1010
1000
1100
0100
,
0110
0000
0010
0000
1010
0000
1000
0000
1001
0000
0001
0010
0001
0000
0110
0000
,
0110
0010
1010
1000
1100
0100
0110
0010
,
0011
0001
0101
0100
0110
0010
1010
1000
,
1100
0100
0110
0010
0011
0001
0101
0100
,
0110
0000
0010
0000
1010
0000
1000
0000
1100
0000
0100
0010
0100
0000
0110
0000
,
0110
1000
0100
0010
,
0100
0001
1000
0010
,
0100
0010
1000
0001
,
0100
0000
1100
0100
0110
0010
1010
1000
,
1001
0000
0001
0100
0001
0000
0110
0000
0110
0000
0010
0000
0011
0000
0010
0100
,
0010
0000
1100
0000
1100
0000
0100
0000
0101
0000
0101
0000
1001
0000
1000
0010
,
1000
0000
1001
0000
1001
0000
0011
0000
0101
0000
0110
0000
1100
0000
1000
0100
,
1000
0110
0110
0010
0011
0001
0101
0100
,
1100
0000
1000
0100
1000
0000
0110
0000
0110
0000
0010
0000
0011
0000
0001
0010
,
0001
0000
0110
0000
1100
0000
1000
0000
1010
0000
0110
0000
0110
0000
0100
0010
,
0100
1100
1100
0101
0110
1010
1001
0000
,
1100
0000
0010
0000
1100
0000
0010
0000
0101
0000
1000
0000
0011
0000
0100
1000
,
0110
0000
0001
0000
1100
0000
0010
0000
1100
0000
0001
0010
0100
1000
0010
0100
,
1001
0000
0100
0000
0110
0000
0001
0000
0110
0000
1000
0001
0110
0000
1000
0000
,
0011
0000
1000
0000
0101
0010
0100
0000
1100
0000
0010
1000
0101
0000
0010
0001
,
1100
0000
0001
0000
1010
0000
0010
0000
1100
0000
0010
0000
0110
0000
1000
0100
,
1000
0000
0110
0000
0110
0000
0001
0000
0110
0000
1000
0100
1000
0000
0110
0000
,
0110
0000
1000
0000
0101
0000
0010
0000
1100
0000
0001
0010
0100
0000
0110
0000
,
1001
0000
0100
0000
0010
0000
0100
0100
,
2200
3322
2233
3322
,
2233
3322
2233
3322
,
1133
0001
1000
0010
0100
0010
1100
0001
,
1100
0000
0010
0000
0100
0000
0001
0000
1000
0000
0010
0000
0001
0000
1000
0100
,
0011
0100
0010
0100
0001
1000
0110
1000
,
0110
0000
1000
0000
0010
0000
0100
0000
0001
0000
1000
0000
0010
0000
0100
0010
,
1100
0001
1000
0010
0100
0001
0110
1000
,
0110
0000
1000
0000
0010
0000
0100
0000
0001
0000
1000
0000
0010
0000
0100
0010
,
1001
0000
0000
0000
1001
0000
0010
0100
1000
0000
0010
0000
0100
0010
0001
0000
,
1000
0000
0010
0100
0010
0000
1000
0000
0001
0010
0100
0000
1000
0000
0010
0100
,
0010
0000
0010
0000
1000
0000
0100
0010
0100
0000
1000
0000
0010
0100
1000
0000
,
0010
0000
0100
0010
0001
0000
1000
0000
0100
0010
0100
0000
1000
0000
0100
0010
,
0001
0000
0001
0000
0010
0000
0100
0010
0100
0000
1000
0000
0001
0100
0001
0000
,
1000
0000
0010
0100
0010
0000
1000
0000
0001
0010
0100
0000
1000
0000
0100
0010
,
0001
0000
0001
0000
0010
0000
0100
0010
0100
0000
1000
0000
0010
0100
0010
0000
,
1000
0000
0001
0100
0010
0000
0000
0000
1000
0100
0010
0100
0001
0000
0100
0010
,
1000
0010
0100
0000
0010
0100
0001
0010
0100
0000
0010
0001
0100
0010
1000
0000
,
0010
0001
1000
0100
0010
0000
0010
0000
0100
0001
1000
0100
0010
0000
0001
0010
,
0100
0010
0001
0000
1000
0010
0100
0001
0010
0000
1000
0100
0010
0100
0001
0000
,
0100
0001
1000
0010
0100
0000
0001
0000
0100
0010
1000
0010
0100
0000
0001
0010
,
0001
0100
0010
0000
0001
0010
0100
0010
0100
0000
0010
0100
0001
0010
0100
0000
,
0010
0100
0001
1000
0100
0000
0100
0000
0010
0100
1000
0010
0100
0000
0010
0001
,
0100
0010
0001
0000
0010
0100
0001
0010
0100
0000
0010
0100
0010
0001
0100
0000
,
1000
0100
0010
0100
1000
0000
0100
0000
1000
0010
1000
0010
0001
0000
0010
0100
,
1000
0010
0100
0000
0010
0100
0001
0010
1000
0000
0010
1000
0100
0010
0001
0000
,
1000
0010
0100
0010
0001
0000
1000
0000
0100
0010
0100
0010
0001
0000
0010
0100
,
1000
0010
0100
1000
0010
0100
0001
0010
0100
0000
0010
0100
0010
0100
1000
0000
,
0001
0010
0100
1000
0110
0000
0110
0000
0100
0010
0100
0010
1000
0000
0100
0010
,
0001
0100
0010
0000
0100
1000
0100
0010
0001
0000
0100
0010
0100
0010
0001
0000
,
1000
0100
0010
0001
0100
0000
0010
0000
1000
0010
0100
0010
0001
0000
0010
0100
,
1000
0010
0100
0001
0010
0100
1000
0010
0100
0000
0010
1000
0100
0010
0001
0000
,
1000
0010
0100
0001
0110
0000
0110
0000
0100
1000
0010
0001
0100
0000
0100
0010
,
0100
0010
1000
0000
0010
0100
0001
0010
0100
0000
0001
0010
0100
0010
1000
0000
,
0010
0100
0010
0100
1000
0000
0001
0000
0100
0010
0100
0010
0001
0000
1000
0100
,
0010
0100
0010
0000
1000
0100
0010
0100
0001
0000
0100
0010
0100
0010
0001
0000
,
0010
0100
1000
0001
0110
0000
0110
0000
0100
0010
0100
0010
1000
0000
0100
0010
,
0100
0010
0001
0000
1000
0100
0010
0100
0001
0000
0010
0100
1000
0010
0100
0000
,
0010
0100
0010
0100
1000
0000
0100
0000
0001
0010
0100
0010
0001
0000
1000
0100
,
0010
0100
1000
0000
0001
0100
0010
0100
1000
0000
0100
0001
0010
0100
1000
0000
,
0100
0010
0100
0010
1001
0000
1001
0000
0000
0000
0000
0000
0000
0000
0000
0000
;

//---------------dance-single - Copied from----------------
#NOTES:
     dance-single:
     Copied from:
     Challenge:
     13:
     1.000,1.000,1.000,0.116,0.636,712.000,346.000,16.000,0.000,8.000:
0000
0000
0000
0000
,
0000
0000
0000
0000
,
1100
0100
0110
0010
1010
1000
1001
0001
,
0101
0100
0110
0010
1010
1000
1100
0100
,
0110
0010
0110
0100
1100
1000
1010
0010
,
0110
0000
0100
0000
0101
0000
0001
0000
0011
0000
0010
1100
0110
0000
0110
0000
,
0101
0001
1001
1000
1100
0100
0110
0010
,
1010
1000
1100
0100
0110
0010
0011
0001
,
0101
0100
0110
0010
1010
1000
1100
0100
,
0110
0000
0010
0000
1010
0000
1000
0000
1001
0000
0001
0110
0011
0000
0110
0000
,
0110
0010
1010
1000
1100
0100
0110
0010
,
0011
0001
0101
0100
0110
0010
1010
1000
,
1100
0100
0110
0010
0011
0001
0101
0100
,
0110
0000
0010
0000
1010
0000
1000
0000
1100
0000
0100
0011
1100
0000
0110
0000
,
0110
1000
0100
0010
,
0100
0001
1000
0010
,
0100
0010
1000
0001
,
0100
0000
1100
0100
0110
0010
1010
1000
,
1001
0000
0001
0110
0101
0000
0110
0000
0110
0000
0010
0000
0011
0000
0010
0101
,
0110
0000
1100
0000
1100
0000
0100
0000
0101
0000
0101
0000
1001
0000
1000
0110
,
1010
0000
1001
0000
1001
0000
0011
0000
0101
0000
0110
0000
1100
0000
1000
0110
,
1100
0110
0110
0010
0011
0001
0101
0100
,
1100
0000
1000
0110
1010
0000
0110
0000
0110
0000
0010
0000
0011
0000
0001
0110
,
0011
0000
0110
0000
1100
0000
1000
0000
1010
0000
0110
0000
0110
0000
0100
0011
,
0110
1100
1100
0101
0110
1010
1001
0000
,
1100
0000
0010
0000
1100
0000
0010
0000
0101
0000
1000
0000
0011
0000
0100
1010
,
0110
0000
0001
0000
1100
0000
0010
0000
1100
0000
0001
0010
0100
1010
0001
0110
,
1001
0000
0100
0000
0110
0000
0001
0000
0110
0000
1000
0011
0110
0000
1000
0000
,
0011
0000
1000
0000
0101
1010
0100
0000
1100
0000
0010
1100
0101
0000
0010
0101
,
1100
0000
0001
0000
1010
0000
0010
0000
1100
0000
0010
0000
0110
0000
1000
0110
,
1100
0000
0110
0000
0110
0000
0001
0000
0110
0000
1000
0101
1010
0000
0110
0000
,
0110
0000
1000
0000
0101
0000
0010
0000
1100
0000
0001
1010
0110
0000
0110
0000
,
1001
0000
0100
0000
0010
0000
0100
0100
,
2200
3322
2233
3322
,
2233
3322
2233
3322
,
1133
0001
1000
0010
0100
0010
1100
0001
,
1100
0000
0010
0000
0100
0000
0001
0000
1000
0000
0010
0000
0001
0000
1000
0100
,
0011
0100
0010
0100
0001
1000
0110
1000
,
0110
0000
1000
0000
0010
0000
0100
0000
0001
0000
1000
0000
0010
0000
0100
0010
,
1100
0001
1000
0010
0100
0001
0110
1000
,
0110
0000
1000
0000
0010
0000
0100
0000
0001
0000
1000
0000
0010
0000
0100
0010
,
1001
0000
0000
0000
1001
0000
0010
0100
1001
0000
0010
0000
0101
0010
0001
0000
,
1100
0000
0010
1100
0011
0000
1100
0000
0101
0010
0100
0000
1001
0000
0010
0101
,
1010
0000
0110
0000
1100
0000
0100
0010
0101
0000
1000
0000
0011
0100
1000
0011
,
0110
0000
1100
0010
1001
0000
1000
0000
0101
0010
1100
0000
1010
0000
1000
0110
,
1001
0000
0101
0000
1010
0000
0100
0010
0101
0000
1000
0000
0011
0100
0001
0000
,
1100
0000
0010
1100
0011
0000
1010
0000
0101
0010
0100
0000
1001
0000
0100
0011
,
1001
0000
0101
0000
1010
0000
0100
0010
0101
0000
1000
0000
0011
0100
0010
0000
,
1100
0000
0001
0100
1010
0000
0000
0000
1001
0100
0010
0100
1001
0000
0100
0010
,
1001
0010
0100
0000
1010
0100
0001
0110
1100
0000
0110
0001
1100
0010
1000
0000
,
0110
0001
1000
0110
0011
0000
0110
0000
1100
0001
1000
0100
0011
0000
0001
0010
,
1100
0010
0001
0110
1100
0010
1100
0001
0110
0000
1000
0100
0011
0100
0001
0000
,
0110
0001
1000
0110
1100
0000
0011
0000
0101
0010
1000
0010
1100
0000
0001
0010
,
1001
0100
0010
0000
0101
0010
0100
0011
1100
0000
1010
0100
1001
0010
0100
0000
,
0011
0100
0001
1010
0110
0000
1100
0000
0011
0100
1000
0010
1100
0000
0010
0001
,
1100
0010
0001
1100
0011
0100
1001
0010
1000
0000
0010
0100
0010
0001
0100
0000
,
1000
0100
0010
0100
1000
0000
0100
0000
1001
0010
1000
0010
1001
0000
0010
0100
,
1001
0010
0100
0000
1010
0100
1000
0011
1100
0000
0110
1000
0101
0010
0001
0000
,
1100
0010
1000
0110
1001
0000
1010
0000
0101
0010
0100
0010
1001
0000
1010
0100
,
1001
0010
0001
1100
0011
0100
1001
0010
1100
0000
0010
0100
0011
0100
1000
0000
,
0101
0010
0100
1010
0110
0001
0110
0001
0110
1000
0100
0010
1001
0000
0100
0010
,
1001
0100
0010
0000
0101
1000
0100
0010
1001
0000
0100
0010
1100
0010
0001
0000
,
1010
0100
0010
0101
1100
0000
0011
0000
1100
0010
0100
0010
1001
0000
0010
0100
,
1001
0010
0100
0011
1010
0100
1001
0010
0101
0000
0010
1100
0101
0010
1001
0000
,
1100
0010
0100
0011
0110
1000
0110
1000
0110
1000
0010
0001
1100
0000
0100
0010
,
0101
0010
1000
0000
1010
0100
0001
0110
1100
0000
1001
0010
0101
0010
1000
0000
,
0011
0100
0010
0101
1010
0000
0101
0000
1100
0010
0100
0010
1001
0000
1000
0100
,
0011
0100
0010
1100
1001
0100
0011
0100
1001
0000
0100
0010
1100
0010
0001
0000
,
0011
0100
1000
0011
0110
1000
0110
0001
0110
1000
0100
0010
1001
0000
0100
0010
,
1100
0010
0001
0000
1010
0100
0010
0101
1001
0000
1010
0100
1001
0010
0100
0000
,
0011
0100
0010
0101
1010
0000
0110
0000
1001
0010
0100
0010
0101
0000
1000
0100
,
0011
0100
1000
0110
0011
0100
1010
0100
1010
0000
0100
0001
1010
0100
1000
0000
,
0101
0010
1000
0110
1001
0000
1001
0000
0000
0000
0000
0000
0000
0000
0000
0000
;

//---------------dance-single - ----------------
#NOTES:
     dance-single:
     :
     Edit:
     15:
     1.000,1.000,0.000,0.000,1.000,1847.000,0.000,0.000,0.000,0.000:
0000
0000
0000
0000
,
0000
0000
0000
0000
,
1000
0100
0010
0001
0000
1000
0100
0010
0001
0000
0000
0000
0000
0000
0000
0000
1000
0100
0010
0001
0000
0001
0010
0100
1000
0000
0000
0000
0000
0000
0000
0000
1000
0100
0010
0001
0000
1000
0100
0010
0001
0000
0000
0000
0000
0000
0000
0000
1000
0100
0010
0001
0000
0001
0010
0100
1000
0000
0000
0000
0000
0000
0000
0000
,
1000
0100
0010
0001
0000
1000
0100
0010
0001
0000
0000
0000
0000
0000
0000
0000
1000
0100
0010
0001
0000
0001
0010
0100
1000
0000
0000
0000
0000
0000
0000
0000
1000
0100
0010
0001
0000
1000
0100
0010
0001
0000
0000
0000
0000
0000
0000
0000
1000
0100
0010
0001
0000
0001
0010
0100
1000
0000
0000
0000
0000
0000
0000
0000
,
1000
0100
0010
0001
0000
1000
0100
0010
0001
0000
0000
0000
0000
0000
0000
0000
1000
0100
0010
0001
0000
0001
0010
0100
1000
0000
0000
0000
0000
0000
0000
0000
1000
0100
0010
0001
0000
1000
0100
0010
0001
0000
0000
0000
0000
0000
0000
0000
1000
0100
0010
0001
0000
0001
0010
0100
1000
0000
0000
0000
0000
0000
0000
0000
,
1000
0100
0010
0001
0000
1000
0100
0010
0001
0000
0000
0000
0000
0000
0000
0000
1000
0100
0010
0001
0000
0001
0010
0100
1000
0000
0000
0000
0000
0000
0000
0000
1000
0100
0010
0001
0000
1000
0100
0010
0001
0000
0000
0000
0000
0000
0000
0000
1000
0100
0010
0001
0000
0001
0010
0100
1000
0000
0000
0000
0000
0000
0000
0000
,
1000
0100
0010
0001
0000
1000
0100
0010
0001
0000
0000
0000
0000
0000
0000
0000
1000
0100
0010
0001
0000
0001
0010
0100
1000
0000
0000
0000
0000
0000
0000
0000
1000
0100
0010
0001
0000
1000
0100
0010
0001
0000
0000
0000
0000
0000
0000
0000
1000
0100
0010
0001
0000
0001
0010
0100
1000
0000
0000
0000
0000
0000
0000
0000
,
1000
0100
0010
0001
0000
1000
0100
0010
0001
0000
0000
0000
0000
0000
0000
0000
1000
0100
0010
0001
0000
0001
0010
0100
1000
0000
0000
0000
0000
0000
0000
0000
1000
0100
0010
0001
0000
1000
0100
0010
0001
0000
0000
0000
0000
0000
0000
0000
1000
0100
0010
0001
0000
0001
0010
0100
1000
0000
0000
0000
0000
0000
0000
0000
,
1000
0100
0010
0001
0000
1000
0100
0010
0001
0000
0000
0000
0000
0000
0000
0000
1000
0100
0010
0001
0000
0001
0010
0100
1000
0000
0000
0000
0000
0000
0000
0000
1000
0100
0010
0001
0000
1000
0100
0010
0001
0000
0000
0000
0000
0000
0000
0000
1000
0100
0010
0001
0000
0001
0010
0100
1000
0000
0000
0000
0000
0000
0000
0000
,
1000
0100
0010
0001
0000
1000
0100
0010
0001
0000
0000
0000
0000
0000
0000
0000
1000
0100
0010
0001
0000
0001
0010
0100
1000
0000
0000
0000
0000
0000
0000
0000
1000
0100
0010
0001
0000
1000
0100
0010
0001
0000
0000
0000
0000
0000
0000
0000
1000
0100
0010
0001
0000
0001
0010
0100
1000
0000
0000
0000
0000
0000
0000
0000
,
1000
0100
0010
0001
0000
1000
0100
0010
0001
0000
0000
0000
0000
0000
0000
0000
1000
0100
0010
0001
0000
0001
0010
0100
1000
0000
0000
0000
0000
0000
0000
0000
1000
0100
0010
0001
0000
1000
0100
0010
0001
0000
0000
0000
0000
0000
0000
0000
1000
0100
0010
0001
0000
0001
0010
0100
1000
0000
0000
0000
0000
0000
0000
0000
,
1000
0100
0010
0001
0000
1000
0100
0010
0001
0000
0000
0000
0000
0000
0000
0000
1000
0100
0010
0001
0000
0001
0010
0100
1000
0000
0000
0000
0000
0000
0000
0000
1000
0100
0010
0001
0000
1000
0100
0010
0001
0000
0000
0000
0000
0000
0000
0000
1000
0100
0010
0001
0000
0001
0010
0100
1000
0000
0000
0000
0000
0000
0000
0000
,
1000
0100
0010
0001
0000
1000
0100
0010
0001
0000
0000
0000
0000
0000
0000
0000
1000
0100
0010
0001
0000
0001
0010
0100
1000
0000
0000
0000
0000
0000
0000
0000
1000
0100
0010
0001
0000
1000
0100
0010
0001
0000
0000
0000
0000
0000
0000
0000
1000
0100
0010
0001
0000
0001
0010
0100
1000
0000
0000
0000
0000
0000
0000
0000
,
1000
0100
0010
0001
0000
1000
0100
0010
0001
0000
0000
0000
0000
0000
0000
0000
1000
0100
0010
0001
0000
0001
0010
0100
1000
0000
0000
0000
0000
0000
0000
0000
1000
0100
0010
0001
0000
1000
0100
0010
0001
0000
0000
0000
0000
0000
0000
0000
1000
0100
0010
0001
0000
0001
0010
0100
1000
0000
0000
0000
0000
0000
0000
0000
,
1000
0100
0010
0001
0000
1000
0100
0010
0001
0000
0000
0000
0000
0000
0000
0000
1000
0100
0010
0001
0000
0001
0010
0100
1000
0000
0000
0000
0000
0000
0000
0000
1000
0100
0010
0001
0000
1000
0100
0010
0001
0000
0000
0000
0000
0000
0000
0000
1000
0100
0010
0001
0000
0001
0010
0100
1000
0000
0000
0000
0000
0000
0000
0000
,
1000
0100
0010
0001
0000
1000
0100
0010
0001
0000
0000
0000
0000
0000
0000
0000
1000
0100
0010
0001
0000
0001
0010
0100
1000
0000
0000
0000
0000
0000
0000
0000
1000
0100
0010
0001
0000
1000
0100
0010
0001
0000
0000
0000
0000
0000
0000
0000
1000
0100
0010
0001
0000
0001
0010
0100
1000
0000
0000
0000
0000
0000
0000
0000
,
1000
0100
0010
0001
0000
1000
0100
0010
0001
0000
0000
0000
0000
0000
0000
0000
1000
0100
0010
0001
0000
0001
0010
0100
1000
0000
0000
0000
0000
0000
0000
0000
1000
0100
0010
0001
0000
1000
0100
0010
0001
0000
0000
0000
0000
0000
0000
0000
1000
0100
0010
0001
0000
0001
0010
0100
1000
0000
0000
0000
0000
0000
0000
0000
,
1000
0000
0000
0000
0000
0000
0000
0000
0000
0000
0000
0000
0000
0000
0000
0000
1000
0100
0010
0001
0000
0001
0010
0100
1000
0000
0000
0000
0000
0000
0000
0000
1000
0100
0010
0001
0000
1000
0100
0010
0001
0000
0000
0000
0000
0000
0000
0000
1000
0100
0010
0001
0000
0001
0010
0100
1000
0000
0000
0000
0000
0000
0000
0000
,
1000
0100
0010
0001
0000
1000
0100
0010
0001
0000
0000
0000
0000
0000
0000
0000
1000
0100
0010
0001
0000
0001
0010
0100
1000
0000
0000
0000
0000
0000
0000
0000
1000
0100
0010
0001
0000
1000
0100
0010
0001
0000
0000
0000
0000
0000
0000
0000
1000
0100
0010
0001
0000
0001
0010
0100
1000
0000
0000
0000
0000
0000
0000
0000
,
1000
0100
0010
0001
0000
1000
0100
0010
0001
0000
0000
0000
0000
0000
0000
0000
1000
0100
0010
0001
0000
0001
0010
0100
1000
0000
0000
0000
0000
0000
0000
0000
1000
0100
0010
0001
0000
1000
0100
0010
0001
0000
0000
0000
0000
0000
0000
0000
1000
0100
0010
0001
0000
0001
0010
0100
1000
0000
0000
0000
0000
0000
0000
0000
,
1000
0100
0010
0001
0000
1000
0100
0010
0001
0000
0000
0000
0000
0000
0000
0000
1000
0100
0010
0001
0000
0001
0010
0100
1000
0000
0000
0000
0000
0000
0000
0000
1000
0100
0010
0001
0000
1000
0100
0010
0001
0000
0000
0000
0000
0000
0000
0000
1000
0100
0010
0001
0000
0001
0010
0100
1000
0000
0000
0000
0000
0000
0000
0000
,
1000
0100
0010
0001
0000
1000
0100
0010
0001
0000
0000
0000
0000
0000
0000
0000
1000
0100
0010
0001
0000
0001
0010
0100
1000
0000
0000
0000
0000
0000
0000
0000
1000
0100
0010
0001
0000
1000
0100
0010
0001
0000
0000
0000
0000
0000
0000
0000
1000
0100
0010
0001
0000
0001
0010
0100
1000
0000
0000
0000
0000
0000
0000
0000
,
1000
0100
0010
0001
0000
1000
0100
0010
0001
0000
0000
0000
0000
0000
0000
0000
1000
0100
0010
0001
0000
0001
0010
0100
1000
0000
0000
0000
0000
0000
0000
0000
1000
0100
0010
0001
0000
1000
0100
0010
0001
0000
0000
0000
0000
0000
0000
0000
1000
0100
0010
0001
0000
0001
0010
0100
1000
0000
0000
0000
0000
0000
0000
0000
,
1000
0100
0010
0001
0000
1000
0100
0010
0001
0000
0000
0000
0000
0000
0000
0000
1000
0100
0010
0001
0000
0001
0010
0100
1000
0000
0000
0000
0000
0000
0000
0000
1000
0100
0010
0001
0000
1000
0100
0010
0001
0000
0000
0000
0000
0000
0000
0000
1000
0100
0010
0001
0000
0001
0010
0100
1000
0000
0000
0000
0000
0000
0000
0000
,
1000
0100
0010
0001
0000
1000
0100
0010
0001
0000
0000
0000
0000
0000
0000
0000
1000
0100
0010
0001
0000
0001
0010
0100
1000
0000
0000
0000
0000
0000
0000
0000
1000
0100
0010
0001
0000
1000
0100
0010
0001
0000
0000
0000
0000
0000
0000
0000
1000
0000
0000
0000
0000
0000
0000
0000
0000
0000
0000
0000
0000
0000
0000
0000
,
1000
0100
0010
0001
0000
1000
0100
0010
0001
0000
0000
0000
0000
0000
0000
0000
1000
0100
0010
0001
0000
0001
0010
0100
1000
0000
0000
0000
0000
0000
0000
0000
1000
0100
0010
0001
0000
1000
0100
0010
0001
0000
0000
0000
0000
0000
0000
0000
1000
0100
0010
0001
0000
0001
0010
0100
1000
0000
0000
0000
0000
0000
0000
0000
,
1000
0100
0010
0001
0000
1000
0100
0010
0001
0000
0000
0000
0000
0000
0000
0000
1000
0100
0010
0001
0000
0001
0010
0100
1000
0000
0000
0000
0000
0000
0000
0000
1000
0100
0010
0001
0000
1000
0100
0010
0001
0000
0000
0000
0000
0000
0000
0000
1000
0100
0010
0001
0000
0001
0010
0100
1000
0000
0000
0000
0000
0000
0000
0000
,
1000
0100
0010
0001
0000
1000
0100
0010
0001
0000
0000
0000
0000
0000
0000
0000
1000
0100
0010
0001
0000
0001
0010
0100
1000
0000
0000
0000
0000
0000
0000
0000
1000
0100
0010
0001
0000
1000
0100
0010
0001
0000
0000
0000
0000
0000
0000
0000
1000
0100
0010
0001
0000
0001
0010
0100
1000
0000
0000
0000
0000
0000
0000
0000
,
1000
0100
0010
0001
0000
1000
0100
0010
0001
0000
0000
0000
0000
0000
0000
0000
1000
0100
0010
0001
0000
0001
0010
0100
1000
0000
0000
0000
0000
0000
0000
0000
1000
0100
0010
0001
0000
1000
0100
0010
0001
0000
0000
0000
0000
0000
0000
0000
1000
0100
0010
0001
0000
0001
0010
0100
1000
0000
0000
0000
0000
0000
0000
0000
,
1000
0100
0010
0001
0000
1000
0100
0010
0001
0000
0000
0000
0000
0000
0000
0000
1000
0100
0010
0001
0000
0001
0010
0100
1000
0000
0000
0000
0000
0000
0000
0000
1000
0100
0010
0001
0000
1000
0100
0010
0001
0000
0000
0000
0000
0000
0000
0000
1000
0100
0010
0001
0000
0001
0010
0100
1000
0000
0000
0000
0000
0000
0000
0000
,
1000
0100
0010
0001
0000
1000
0100
0010
0001
0000
0000
0000
0000
0000
0000
0000
1000
0100
0010
0001
0000
0001
0010
0100
1000
0000
0000
0000
0000
0000
0000
0000
1000
0100
0010
0001
0000
1000
0100
0010
0001
0000
0000
0000
0000
0000
0000
0000
1000
0100
0010
0001
0000
0001
0010
0100
1000
0000
0000
0000
0000
0000
0000
0000
,
1000
0100
0010
0001
0000
1000
0100
0010
0001
0000
0000
0000
0000
0000
0000
0000
1000
0100
0010
0001
0000
0001
0010
0100
1000
0000
0000
0000
0000
0000
0000
0000
1000
0100
0010
0001
0000
1000
0100
0010
0001
0000
0000
0000
0000
0000
0000
0000
1000
0100
0010
0001
0000
0001
0010
0100
1000
0000
0000
0000
0000
0000
0000
0000
,
1000
0100
0010
0001
0000
1000
0100
0010
0001
0000
0000
0000
0000
0000
0000
0000
1000
0100
0010
0001
0000
0001
0010
0100
1000
0000
0000
0000
0000
0000
0000
0000
1000
0100
0010
0001
0000
1000
0100
0010
0001
0000
0000
0000
0000
0000
0000
0000
1000
0100
0010
0001
0000
0001
0010
0100
1000
0000
0000
0000
0000
0000
0000
0000
,
1000
0001
1000
0001
,
1000
0001
1000
0001
,
1000
0100
0010
0001
1000
0100
0010
0001
1000
0100
0010
0001
1000
0100
0010
0001
1000
0100
0010
0001
1000
0100
0010
0001
1000
0100
0010
0001
1000
0100
0010
0001
1000
0100
0010
0001
1000
0100
0010
0001
1000
0100
0010
0001
1000
0100
0010
0001
1000
0100
0010
0001
1000
0100
0010
0001
0001
0000
0000
0000
0000
0000
0000
0000
,
0001
0010
0100
1000
0001
0010
0100
1000
0001
0010
0100
1000
0001
0010
0100
1000
0001
0010
0100
1000
0001
0010
0100
1000
0001
0010
0100
1000
0001
0010
0100
1000
0001
0010
0100
1000
0001
0010
0100
1000
0001
0010
0100
1000
0001
0010
0100
1000
0001
0010
0100
1000
0001
0010
0100
1000
1000
0000
0000
0000
0000
0000
0000
0000
,
1000
0100
0010
0001
1000
0100
0010
0001
1000
0100
0010
0001
1000
0100
0010
0001
1000
0100
0010
0001
1000
0100
0010
0001
1000
0100
0010
0001
1000
0100
0010
0001
1000
0100
0010
0001
1000
0100
0010
0001
1000
0100
0010
0001
1000
0100
0010
0001
1000
0100
0010
0001
1000
0100
0010
0001
0001
0000
0000
0000
0000
0000
0000
0000
,
0001
0010
0100
1000
0001
0010
0100
1000
0001
0010
0100
1000
0001
0010
0100
1000
0001
0010
0100
1000
0001
0010
0100
1000
0001
0010
0100
1000
0001
0010
0100
1000
0001
0010
0100
1000
0001
0010
0100
1000
0001
0010
0100
1000
0001
0010
0100
1000
0001
0010
0100
1000
0001
0010
0100
1000
1000
0000
0000
0000
0000
0000
0000
0000
,
1000
0100
0010
0001
1000
0100
0010
0001
1000
0100
0010
0001
1000
0100
0010
0001
1000
0100
0010
0001
1000
0100
0010
0001
1000
0100
0010
0001
1000
0100
0010
0001
1000
0100
0010
0001
1000
0100
0010
0001
1000
0100
0010
0001
1000
0100
0010
0001
1000
0100
0010
0001
1000
0100
0010
0001
0001
0000
0000
0000
0000
0000
0000
0000
,
0001
0010
0100
1000
0001
0010
0100
1000
0001
0010
0100
1000
0001
0010
0100
1000
0001
0010
0100
1000
0001
0010
0100
1000
0001
0010
0100
1000
0001
0010
0100
1000
0001
0010
0100
1000
0001
0010
0100
1000
0001
0010
0100
1000
0001
0010
0100
1000
0001
0010
0100
1000
0001
0010
0100
1000
1000
0000
0000
0000
0000
0000
0000
0000
,
1000
0000
0000
0000
0000
0000
0000
0000
0000
0000
0000
0000
0000
0000
0000
0000
1000
0100
0010
0001
0000
1000
0100
0010
0001
0000
0000
0000
0000
0000
0000
0000
1000
0100
0010
0001
0000
0001
0010
0100
1000
0000
0000
0000
0000
0000
0000
0000
1000
0100
0010
0001
0000
1000
0100
0010
0001
0000
0000
0000
0000
0000
0000
0000
,
1000
0100
0010
0001
0000
0001
0010
0100
1000
0000
0000
0000
0000
0000
0000
0000
1000
0100
0010
0001
0000
1000
0100
0010
0001
0000
0000
0000
0000
0000
0000
0000
1000
0100
0010
0001
0000
0001
0010
0100
1000
0000
0000
0000
0000
0000
0000
0000
1000
0100
0010
0001
0000
1000
0100
0010
0001
0000
0000
0000
0000
0000
0000
0000
,
1000
0100
0010
0001
0000
0001
0010
0100
1000
0000
0000
0000
0000
0000
0000
0000
1000
0100
0010
0001
0000
1000
0100
0010
0001
0000
0000
0000
0000
0000
0000
0000
1000
0100
0010
0001
0000
0001
0010
0100
1000
0000
0000
0000
0000
0000
0000
0000
1000
0100
0010
0001
0000
1000
0100
0010
0001
0000
0000
0000
0000
0000
0000
0000
,
1000
0100
0010
0001
0000
0001
0010
0100
1000
0000
0000
0000
0000
0000
0000
0000
1000
0100
0010
0001
0000
1000
0100
0010
0001
0000
0000
0000
0000
0000
0000
0000
1000
0100
0010
0001
0000
0001
0010
0100
1000
0000
0000
0000
0000
0000
0000
0000
1000
0100
0010
0001
0000
1000
0100
0010
0001
0000
0000
0000
0000
0000
0000
0000
,
1000
0100
0010
0001
0000
0001
0010
0100
1000
0000
0000
0000
0000
0000
0000
0000
1000
0100
0010
0001
0000
1000
0100
0010
0001
0000
0000
0000
0000
0000
0000
0000
1000
0100
0010
0001
0000
0001
0010
0100
1000
0000
0000
0000
0000
0000
0000
0000
1000
0100
0010
0001
0000
1000
0100
0010
0001
0000
0000
0000
0000
0000
0000
0000
,
1000
0100
0010
0001
0000
0001
0010
0100
1000
0000
0000
0000
0000
0000
0000
0000
1000
0100
0010
0001
0000
1000
0100
0010
0001
0000
0000
0000
0000
0000
0000
0000
1000
0100
0010
0001
0000
0001
0010
0100
1000
0000
0000
0000
0000
0000
0000
0000
1000
0100
0010
0001
0000
1000
0100
0010
0001
0000
0000
0000
0000
0000
0000
0000
,
1000
0100
0010
0001
0000
0001
0010
0100
1000
0000
0000
0000
0000
0000
0000
0000
1000
0100
0010
0001
0000
1000
0100
0010
0001
0000
0000
0000
0000
0000
0000
0000
1000
0100
0010
0001
0000
0001
0010
0100
1000
0000
0000
0000
0000
0000
0000
0000
1000
0100
0010
0001
0000
1000
0100
0010
0001
0000
0000
0000
0000
0000
0000
0000
,
1000
0100
0010
0001
0000
0001
0010
0100
1000
0000
0000
0000
0000
0000
0000
0000
0000
0000
0000
0000
0000
0000
0000
0000
0000
0000
0000
0000
0000
0000
0000
0000
1000
0100
0010
0001
0000
0001
0010
0100
1000
0000
0000
0000
0000
0000
0000
0000
1000
0100
0010
0001
0000
1000
0100
0010
0001
0000
0000
0000
0000
0000
0000
0000
,
1000
0100
0010
0001
0000
0001
0010
0100
1000
0000
0000
0000
0000
0000
0000
0000
1000
0100
0010
0001
0000
1000
0100
0010
0001
0000
0000
0000
0000
0000
0000
0000
1000
0100
0010
0001
0000
0001
0010
0100
1000
0000
0000
0000
0000
0000
0000
0000
1000
0100
0010
0001
0000
1000
0100
0010
0001
0000
0000
0000
0000
0000
0000
0000
,
1000
0100
0010
0001
0000
0001
0010
0100
1000
0000
0000
0000
0000
0000
0000
0000
1000
0100
0010
0001
0000
1000
0100
0010
0001
0000
0000
0000
0000
0000
0000
0000
1000
0100
0010
0001
0000
0001
0010
0100
1000
0000
0000
0000
0000
0000
0000
0000
1000
0100
0010
0001
0000
1000
0100
0010
0001
0000
0000
0000
0000
0000
0000
0000
,
1000
0100
0010
0001
0000
0001
0010
0100
1000
0000
0000
0000
0000
0000
0000
0000
1000
0100
0010
0001
0000
1000
0100
0010
0001
0000
0000
0000
0000
0000
0000
0000
1000
0100
0010
0001
0000
0001
0010
0100
1000
0000
0000
0000
0000
0000
0000
0000
1000
0100
0010
0001
0000
1000
0100
0010
0001
0000
0000
0000
0000
0000
0000
0000
,
1000
0100
0010
0001
0000
0001
0010
0100
1000
0000
0000
0000
0000
0000
0000
0000
1000
0100
0010
0001
0000
1000
0100
0010
0001
0000
0000
0000
0000
0000
0000
0000
1000
0100
0010
0001
0000
0001
0010
0100
1000
0000
0000
0000
0000
0000
0000
0000
1000
0100
0010
0001
0000
1000
0100
0010
0001
0000
0000
0000
0000
0000
0000
0000
,
1000
0100
0010
0001
0000
0001
0010
0100
1000
0000
0000
0000
0000
0000
0000
0000
1000
0100
0010
0001
0000
1000
0100
0010
0001
0000
0000
0000
0000
0000
0000
0000
1000
0100
0010
0001
0000
0001
0010
0100
1000
0000
0000
0000
0000
0000
0000
0000
1000
0100
0010
0001
0000
1000
0100
0010
0001
0000
0000
0000
0000
0000
0000
0000
,
1000
0100
0010
0001
0000
0001
0010
0100
1000
0000
0000
0000
0000
0000
0000
0000
1000
0100
0010
0001
0000
1000
0100
0010
0001
0000
0000
0000
0000
0000
0000
0000
1000
0100
0010
0001
0000
0001
0010
0100
1000
0000
0000
0000
0000
0000
0000
0000
1000
0100
0010
0001
0000
1000
0100
0010
0001
0000
0000
0000
0000
0000
0000
0000
,
1000
0100
0010
0001
0000
0001
0010
0100
1000
0000
0000
0000
0000
0000
0000
0000
1000
0100
0010
0001
0000
1000
0100
0010
0001
0000
0000
0000
0000
0000
0000
0000
1000
0000
0000
0000
0000
0000
0000
0000
0000
0000
0000
0000
0000
0000
0000
0000
0010
0000
0000
0000
0000
0000
0000
0000
0000
0000
0000
0000
0000
0000
0000
0000
,
0100
0001
1000
0010
,
0100
0001
0010
0100
,
1000
0010
0100
0001
,
1000
0100
0010
0001
,
0100
0010
1000
0100
,
0010
0100
0001
0010
,
0100
0010
0100
0010
,
1000
0001
0100
0010
,
1000
0100
0010
0100
,
0001
1000
0010
0100
,
0001
0100
0010
1000
,
0010
0100
0001
1000
,
0001
0100
0010
0001
,
1000
0010
0100
1000
,
0001
0100
0010
0001
,
1000
0010
0100
0001
,
0100
0000
0000
0010
0010
0000
0010
0000
0000
0000
0000
0000
0000
0000
0000
0000
;
